Ad Astra (2019) 720p BluRay x264 Dual Audio [Hindi DD5.1 - Englis...

  • Category Movies
  • Type Dubs/Dual Audio
  • Language Hindi
  • Total size 1.3 GB
  • Uploaded By uploader6969
  • Downloads 5143
  • Last checked 3 months ago
  • Date uploaded 3 months ago
  • Seeders 87
  • Leechers 47

Ad Astra

ThrillerScience FictionAdventureMysteryDrama

An astronaut travels to the outer edges of the solar system to find his father and unravel a mystery that threatens the survival of our planet. He uncovers secrets which challenge the nature of human existence and our place in the cosmos.

Infohash : 3E32988D53CE4BAE3B26BB20009EC5778B80A6F4

www.MoviePirate.Site


Telegram Link



****************************
_____ _ _ 
|_ _|___ | || | _ _ 
| | / _ \| || || | | |
| || __/| || || |_| |
|_| \___||_||_| \__, |
|___/ 
****************************
Team Telly Proudly Presents
****************************
------------------
|Media Info|
------------------
General
Unique ID                                : 46015807427915753272841764910272369972 (0x229E52780871837F9B1A1172B70C5534)
Complete name                            : D:\Encoded\Done\Ad Astra (2019) 720p BluRay x264 Dual Audio [Hindi DD5.1 - English DD5.1] ESub - MoviePirate - Telly\Ad Astra (2019) 720p BluRay x264 Dual Audio [Hindi DD5.1 - English DD5.1] ESub - MoviePirate - Telly.mkv
Format                                   : Matroska
Format version                           : Version 4
File size                                : 1.35 GiB
Duration                                 : 2 h 3 min
Overall bit rate                         : 1 569 kb/s
Movie name                               : MoviePirate.Site | Ad Astra (2019) 720p BluRay x264 Dual Audio [Hindi DD5.1 - English DD5.1] ESub - MoviePirate - Telly
Encoded date                             : UTC 2019-12-08 03:28:38
Writing application                      : mkvmerge v40.0.0 ('Old Town Road + Pony') 64-bit
Writing library                          : libebml v1.3.9 + libmatroska v1.5.2 / Lavf58.20.100
Video
ID                                       : 1
Format                                   : AVC
Format/Info                              : Advanced Video Codec
Format profile                           : [email protected]
Format settings                          : CABAC / 5 Ref Frames
Format settings, CABAC                   : Yes
Format settings, Reference frames        : 5 frames
Codec ID                                 : V_MPEG4/ISO/AVC
Duration                                 : 2 h 3 min
Bit rate                                 : 1 100 kb/s
Width                                    : 1 280 pixels
Height                                   : 536 pixels
Display aspect ratio                     : 2.40:1
Frame rate mode                          : Constant
Frame rate                               : 23.976 (24000/1001) FPS
Color space                              : YUV
Chroma subsampling                       : 4:2:0
Bit depth                                : 8 bits
Scan type                                : Progressive
Bits/(Pixel*Frame)                       : 0.067
Stream size                              : 957 MiB (69%)
Title                                    : MoviePirate.Site
Writing library                          : x264 core 157 r2935 545de2f
Encoding settings                        : cabac=1 / ref=5 / deblock=1:0:0 / analyse=0x1:0x111 / me=hex / subme=8 / psy=1 / psy_rd=1.00:0.00 / mixed_ref=1 / me_range=16 / chroma_me=1 / trellis=2 / 8x8dct=0 / cqm=0 / deadzone=21,11 / fast_pskip=1 / chroma_qp_offset=-2 / threads=6 / lookahead_threads=1 / sliced_threads=0 / nr=0 / decimate=1 / interlaced=0 / bluray_compat=0 / constrained_intra=0 / bframes=3 / b_pyramid=2 / b_adapt=1 / b_bias=0 / direct=3 / weightb=1 / open_gop=0 / weightp=2 / keyint=240 / keyint_min=24 / scenecut=40 / intra_refresh=0 / rc_lookahead=50 / rc=abr / mbtree=1 / bitrate=1100 / ratetol=1.0 / qcomp=0.60 / qpmin=0 / qpmax=69 / qpstep=4 / vbv_maxrate=50000 / vbv_bufsize=62500 / nal_hrd=none / filler=0 / ip_ratio=1.40 / aq=1:1.00
Default                                  : Yes
Forced                                   : No
Color range                              : Limited
Color primaries                          : BT.709
Transfer characteristics                 : BT.709
Matrix coefficients                      : BT.709
Audio #1
ID                                       : 2
Format                                   : AC-3
Format/Info                              : Audio Coding 3
Commercial name                          : Dolby Digital
Codec ID                                 : A_AC3
Duration                                 : 2 h 3 min
Bit rate mode                            : Constant
Bit rate                                 : 224 kb/s
Channel(s)                               : 6 channels
Channel layout                           : L R C LFE Ls Rs
Sampling rate                            : 48.0 kHz
Frame rate                               : 31.250 FPS (1536 SPF)
Compression mode                         : Lossy
Delay relative to video                  : -5 ms
Stream size                              : 197 MiB (14%)
Title                                    : MoviePirate.Site
Language                                 : English
Service kind                             : Complete Main
Default                                  : Yes
Forced                                   : No
Audio #2
ID                                       : 5
Format                                   : AC-3
Format/Info                              : Audio Coding 3
Commercial name                          : Dolby Digital
Codec ID                                 : A_AC3
Duration                                 : 2 h 3 min
Bit rate mode                            : Constant
Bit rate                                 : 224 kb/s
Channel(s)                               : 6 channels
Channel layout                           : L R C LFE Ls Rs
Sampling rate                            : 44.1 kHz
Frame rate                               : 28.711 FPS (1536 SPF)
Compression mode                         : Lossy
Delay relative to video                  : -5 ms
Stream size                              : 197 MiB (14%)
Title                                    : MoviePirate.Site
Language                                 : Hindi
Service kind                             : Complete Main
Default                                  : No
Forced                                   : No
Text #1
ID                                       : 3
Format                                   : PGS
Muxing mode                              : zlib
Codec ID                                 : S_HDMV/PGS
Codec ID/Info                            : Picture based subtitle format used on BDs/HD-DVDs
Duration                                 : 1 h 53 min
Bit rate                                 : 72.4 kb/s
Count of elements                        : 3914
Stream size                              : 58.6 MiB (4%)
Title                                    : MoviePirate.Site
Language                                 : English
Default                                  : No
Forced                                   : No
Text #2
ID                                       : 4
Format                                   : PGS
Muxing mode                              : zlib
Codec ID                                 : S_HDMV/PGS
Codec ID/Info                            : Picture based subtitle format used on BDs/HD-DVDs
Duration                                 : 1 h 50 min
Bit rate                                 : 36.0 kb/s
Count of elements                        : 2786
Stream size                              : 28.5 MiB (2%)
Title                                    : MoviePirate.Site
Language                                 : English
Default                                  : No
Forced                                   : No
Menu
00:00:00.000                             : :Chapter 1
00:04:22.763                             : :Chapter 2
00:08:48.778                             : :Chapter 3
00:16:25.860                             : :Chapter 4
00:22:33.853                             : :Chapter 5
00:30:08.557                             : :Chapter 6
00:35:08.356                             : :Chapter 7
00:40:33.389                             : :Chapter 8
00:44:45.433                             : :Chapter 9
00:48:56.809                             : :Chapter 10
00:53:51.854                             : :Chapter 11
00:56:43.775                             : :Chapter 12
01:01:31.938                             : :Chapter 13
01:07:23.915                             : :Chapter 14
01:12:12.453                             : :Chapter 15
01:16:59.115                             : :Chapter 16
01:21:35.265                             : :Chapter 17
01:24:42.703                             : :Chapter 18
01:31:16.596                             : :Chapter 19
01:36:27.031                             : :Chapter 20
01:40:59.679                             : :Chapter 21
01:46:26.630                             : :Chapter 22
01:50:00.094                             : :Chapter 23
01:53:17.791                             : :Chapter 24
Special Thanks To NoNam3 For Org Hindi DD5.1 448Kbps Audio
****************************
Telly.cc
Team Telly Official Site
****************************
www.MoviePirate.Site
Enjoy Exclusives Content only on Telly.cc







Files:

Ad Astra (2019) 720p BluRay x264 Dual Audio [Hindi DD5.1 - English DD5.1] ESub - MoviePirate - Telly
  • Ad Astra (2019) 720p BluRay x264 Dual Audio [Hindi DD5.1 - English DD5.1] ESub - MoviePirate - Telly.mkv (1.3 GB)
  • MoviePirate.Site.txt (0.1 KB)

Comments

Code:

  • udp://tracker.coppersurfer.tk:6969/announce
  • udp://tracker.leechers-paradise.org:6969/announce
  • udp://open.stealth.si:80/announce
  • udp://tracker.internetwarriors.net:1337/announce
  • udp://tracker.openbittorrent.com:80/announce
  • udp://explodie.org:6969/announce
  • udp://tracker.opentrackr.org:1337/announce
  • udp://tracker.tiny-vps.com:6969/announce
  • udp://open.demonii.si:1337/announce
  • udp://tracker.torrent.eu.org:451/announce
  • udp://tracker.pirateparty.gr:6969/announce
  • udp://ipv4.tracker.harry.lu:80/announce
  • udp://tracker.cyberia.is:6969/announce
  • udp://9.rarbg.to:2710/announce
  • udp://denis.stalker.upeer.me:6969/announce