Ad Astra (2019).720p.H264.ita.eng.Ac3-5.1.sub.ita.eng-MIRCrew

  • Category Movies
  • Type HD
  • Language English
  • Total size 2.5 GB
  • Uploaded By robbyrs
  • Downloads 674
  • Last checked 3 months ago
  • Date uploaded 3 months ago
  • Seeders 71
  • Leechers 20

Ad Astra

ThrillerScience FictionAdventureMysteryDrama

An astronaut travels to the outer edges of the solar system to find his father and unravel a mystery that threatens the survival of our planet. He uncovers secrets which challenge the nature of human existence and our place in the cosmos.

Infohash : 4CC1EB4DF81DF32704B9AEA3F2CA07EAE3F07A9F

Ad Astra (2019).720p.H264.ita.eng.Ac3-5.1.sub.ita.eng-MIRCrew


NO FOUND ONLY ORIGINAL RELEASE

My release is always in double track audio italian and Original audio
for select it use VLC or dvd player home
not use wmp

Ad Astra (2019)

Quality MIRCrew on HD 720p da 2,4 gb









Lingua originale inglese, giapponese, russo
Paese di produzione Stati Uniti d'America, Brasile, Cina
Anno 2019
Durata 124 min
Rapporto 2,39:1
Genere fantascienza, avventura, drammatico, thriller
Regia James Gray
Sceneggiatura James Gray, Ethan Gross



Brad Pitt: maggiore Roy McBride
Tommy Lee Jones: H. Clifford McBride
Ruth Negga: Helen Lantos
Liv Tyler: Eve McBride
Donald Sutherland: colonnello Thomas Pruitt
John Ortiz: generale Rivas
Donnie Keshawarz: capitano Lawrence Tanner
Greg Bryk: Chip Garnes
Loren Dean: Donald Stanford
John Finn: generale Stroud
Kimberly Elise: Lorraine Deavers
Bobby Nish: Franklin Yoshida
LisaGay Hamilton: Amelia Vogel
Jamie Kennedy: Peter Bello
Natasha Lyonne: Tanya Pincus
Ravi Kapoor: Arjun Dhariwal
Alyson Reed: Janice Collins



Nel futuro non lontano, il sistema solare viene colpito da misteriosi picchi di energia, che minacciano tutta la vita sulla Terra. Dopo essere sopravvissuto a un incidente causato da uno di questi picchi, il maggiore Roy McBride, figlio del famoso astronauta Clifford McBride, viene informato dal Comando Spaziale Statunitense, SpaceCom, che le ondate sono provenienti da Nettuno e forse causate dalla base del "Progetto LIMA"



Astronaut Roy McBride undertakes a mission across an unforgiving solar system to uncover the truth about his missing father and his doomed expedition that now, 30 years later, threatens the universe.







General
Unique ID : 171851448807724213787152222962686828061 (0x81496297852297B796C119D0E1271E1D)
Complete name : Ad Astra (2019).720p.H264.ita.eng.sub.ita.eng-MIRCrew\Ad Astra (2019).720p.H264.ita.eng.sub.ita.eng-MIRCrew.mkv
Format : Matroska
Format version : Version 2
File size : 2.48 GiB
Duration : 2h 3mn
Overall bit rate : 2 883 Kbps
Movie name : robbyrs
Encoded date : UTC 2019-12-08 09:22:40
Writing application : mkvmerge v5.8.0 ('No Sleep / Pillow') built on Sep 2 2012 15:37:04
Writing library : Lavf54.63.100
COMMENT : robbyrs
COPYRIGHT : robbyrs

Video
ID : 1
Format : AVC
Format/Info : Advanced Video Codec
Format profile : [email protected]
Format settings, CABAC : Yes
Format settings, ReFrames : 2 frames
Codec ID : V_MPEG4/ISO/AVC
Duration : 2h 3mn
Bit rate : 2 000 Kbps
Width : 1 280 pixels
Height : 544 pixels
Display aspect ratio : 2.40:1
Original display aspect ratio : 2.40:1
Frame rate mode : Variable
Frame rate : 23.976 fps
Color space : YUV
Chroma subsampling : 4:2:0
Bit depth : 8 bits
Scan type : Progressive
Bits/(Pixel*Frame) : 0.120
Stream size : 1.66 GiB (67%)
Title : robbyrs
Writing library : x264 core 130 r2273
Encoding settings : cabac=1 / ref=2 / deblock=1:0:0 / analyse=0x1:0x131 / me=hex / subme=7 / psy=1 / psy_rd=1.00:0.00 / mixed_ref=0 / me_range=16 / chroma_me=1 / trellis=1 / 8x8dct=0 / cqm=0 / deadzone=21,11 / fast_pskip=1 / chroma_qp_offset=-2 / threads=9 / lookahead_threads=1 / sliced_threads=0 / nr=0 / decimate=1 / interlaced=0 / bluray_compat=0 / constrained_intra=0 / bframes=3 / b_pyramid=0 / b_adapt=1 / b_bias=0 / direct=3 / weightb=1 / open_gop=0 / weightp=2 / keyint=230 / keyint_min=23 / scenecut=40 / intra_refresh=0 / rc_lookahead=40 / rc=abr / mbtree=1 / bitrate=2000 / ratetol=1.0 / qcomp=0.60 / qpmin=10 / qpmax=69 / qpstep=4 / vbv_maxrate=24000 / vbv_bufsize=24000 / nal_hrd=none / ip_ratio=1.40 / aq=1:1.00
Language : Italian
Default : Yes
Forced : No
DURATION : 02:03:02.375000000
NUMBER_OF_FRAMES : 177000
NUMBER_OF_BYTES : 7980122037
_STATISTICS_WRITING_APP : mkvmerge v41.0.0 ('Smarra') 64-bit
_STATISTICS_WRITING_DATE_UTC : 2019-12-08 09:22:40
_STATISTICS_TAGS : BPS DURATION NUMBER_OF_FRAMES NUMBER_OF_BYTES

Audio #1
ID : 2
Format : AC-3
Format/Info : Audio Coding 3
Mode extension : CM (complete main)
Codec ID : A_AC3
Duration : 2h 3mn
Bit rate mode : Constant
Bit rate : 448 Kbps
Channel(s) : 6 channels
Channel positions : Front: L C R, Side: L R, LFE
Sampling rate : 48.0 KHz
Bit depth : 16 bits
Compression mode : Lossy
Delay relative to video : -5ms
Stream size : 394 MiB (16%)
Title : Ita Ac3 5.1
Language : Italian
Default : No
Forced : No
DURATION : 02:03:02.400000000
NUMBER_OF_FRAMES : 230700
NUMBER_OF_BYTES : 590592000
_STATISTICS_WRITING_APP : mkvmerge v41.0.0 ('Smarra') 64-bit
_STATISTICS_WRITING_DATE_UTC : 2019-12-08 09:22:40
_STATISTICS_TAGS : BPS DURATION NUMBER_OF_FRAMES NUMBER_OF_BYTES

Audio #2
ID : 3
Format : AC-3
Format/Info : Audio Coding 3
Mode extension : CM (complete main)
Codec ID : A_AC3
Duration : 2h 3mn
Bit rate mode : Constant
Bit rate : 448 Kbps
Channel(s) : 6 channels
Channel positions : Front: L C R, Side: L R, LFE
Sampling rate : 48.0 KHz
Bit depth : 16 bits
Compression mode : Lossy
Delay relative to video : -5ms
Stream size : 394 MiB (16%)
Title : Eng Ac3 5.1
Language : English
Default : No
Forced : No
DURATION : 02:03:02.400000000
NUMBER_OF_FRAMES : 230700
NUMBER_OF_BYTES : 590592000
_STATISTICS_WRITING_APP : mkvmerge v41.0.0 ('Smarra') 64-bit
_STATISTICS_WRITING_DATE_UTC : 2019-12-08 09:22:40
_STATISTICS_TAGS : BPS DURATION NUMBER_OF_FRAMES NUMBER_OF_BYTES

Menu
00:00:00.000 : :Chapter 01
00:04:22.679 : :Chapter 02
00:08:48.695 : :Chapter 03
00:16:25.776 : :Chapter 04
00:22:33.811 : :Chapter 05
00:30:08.515 : :Chapter 06
00:35:08.273 : :Chapter 07
00:40:33.348 : :Chapter 08
00:44:45.391 : :Chapter 09
00:48:56.809 : :Chapter 10
00:53:51.812 : :Chapter 11
00:56:43.775 : :Chapter 12
01:01:31.897 : :Chapter 13
01:07:23.873 : :Chapter 14
01:12:12.411 : :Chapter 15
01:16:59.114 : :Chapter 16
01:21:35.182 : :Chapter 17
01:24:42.661 : :Chapter 18
01:31:16.554 : :Chapter 19
01:36:27.031 : :Chapter 20
01:40:59.595 : :Chapter 21
01:46:26.589 : :Chapter 22
01:50:00.052 : :Chapter 23
01:53:17.791 : :Chapter 24






Files:

Ad Astra (2019).720p.H264.ita.eng.sub.ita.eng-MIRCrew
  • Ad Astra (2019).720p.H264.ita.eng.sub.ita.eng-MIRCrew.eng.srt (95.6 KB)
  • Ad Astra (2019).720p.H264.ita.eng.sub.ita.eng-MIRCrew.ita.srt (82.2 KB)
  • Ad Astra (2019).720p.H264.ita.eng.sub.ita.eng-MIRCrew.mkv (2.5 GB)
  • Ad Astra (2019).720p.H264.ita.eng.sub.ita.eng-MIRCrew.srt (1.0 KB)

There are currently no comments. Feel free to leave one :)

Code:

  • udp://tracker.coppersurfer.tk:6969/announce
  • udp://tracker.torrent.eu.org:451/announce
  • udp://tracker.leechers-paradise.org:6969/announce
  • udp://tracker.opentrackr.org:1337/announce
  • udp://9.rarbg.to:2730/announce
  • udp://9.rarbg.com:2710/announce
  • udp://9.rarbg.me:2780/announce
  • udp://tracker.coppersurfer.tk:80/announce
  • udp://tracker.pirateparty.gr:6969/announce
  • udp://tracker.eddie4.nl:6969/announce
  • udp://shadowshq.yi.org:6969/announce
  • udp://shadowshq.eddie4.nl:6969/announce
  • udp://inferno.demonoid.pw:3391/announce
  • udp://eddie4.nl:6969/announce
  • udp://62.138.0.158:6969/announce